Watch How To Download Video

The 100 Season 1 Hindi Dubbed Dual Audio Episodes Free Download In 720p BluRay x264 Quality.

Episode 12 Added

The 100 Season 1 Hindi Dubbed Free Download Complete Episodes In 720p HD BluRay x264

Details Of Full Length Free Videos

Title: The 100 Season 1 Hindi Episodes
Genres: Drama | Mystery | Sci-Fi
Country: USA
Language: Hindi + English
Release Date: 19 March 2014 (USA)
Subtitle: English
Quality: 720p BluRay x264
Format: MKV
Size: Various

IMDb

Storyline:

Free Download The 100 In Hindi series is set 97 years after a devastating nuclear war wiped out almost all life on Earth. The only known survivors are the residents of twelve space stations in Earth’s orbit prior to the war. The space stations banded together to form a single massive station named “The Ark”, wenis galore about 2,400 people live. Resources are scarce and all crimes no matter their nature or severity are punishable by death (“floating”) unless the perpetrator is under 18 years of age. After the Ark’s life support systems are found to be critically failing, one hundred juvenile prisoners are declared “expendable” and sent to the surface in a last ditch attempt to determine if Earth is habitable again. The teens arrive on a beautiful planet they’ve only seen from space. Confronting the dangers of this rugged new world, they struggle to form a tentative community. The 100 Season 1 Episode Download In Hindi However they discover that not all humanity was wiped out. There are people on Earth who survived the war, called “grounders” by the 100….

The series follows a group of post-apocalyptic survivors, chiefly a group of adolescents, including Clarke Griffin (Eliza Taylor), Bellamy Blake (Bob Morley), Octavia Blake (Marie Avgeropoulos), Jasper Jordan (Devon Bostick), Monty Green The 100 Season 1 Episode In Hindi 720p HD. (Christopher Larkin), Raven Reyes (Lindsey Morgan), Finn Collins (Thomas McDonell), John Murphy (Richard Harmon), and Wells Jaha (Eli Goree). They are among the first people from a space habitat, “The Ark”, to return to Earth after a devastating nuclear apocalypse. Other lead characters include Dr. Abby Griffin (Paige Turco), Clarke’s mother; Marcus Kane (Henry Ian Cusick), a council member on the Ark; and Thelonious Jaha (Isaiah Washington), the Chancellor of the Ark and Wells’s father.

In March 2017, The CW renewed the series for a fifth season, which premiered on April 24, 2018. In May 2018, the series was renewed for a sixth season.

Source: WIKIPEDIA

Video File Detail

Video File Detail

The 100 Season 1 In Hindi General

Format : Matroska
Format version : Version 4 / Version 2
File size : 366 MiB
Duration : 41 min 16 s
Overall bit rate : 1 239 kb/s
Encoded date : UTC 2018-07-03 09:06:20
Writing application : mkvmerge v12.0.0 (‘Trust / Lust’) 64bit
Writing library : libebml v1.3.4 + libmatroska v1.4.5

Video
ID : 2
Format : AVC
Format/Info : Advanced Video Codec
Format profile : High@L4
Format settings : CABAC / 8 Ref Frames
Format settings, CABAC : Yes
Format settings, ReFrames : 8 frames
Codec ID : V_MPEG4/ISO/AVC
Duration : 41 min 15 s
Bit rate : 961 kb/s
Width : 1 280 pixels
Height : 720 pixels
Display aspect ratio : 16:9
Frame rate mode : Constant
Frame rate : 23.976 (24000/1001) FPS
Color space : YUV
Chroma subsampling : 4:2:0
Bit depth : 8 bits
Scan type : Progressive
Bits/(Pixel*Frame) : 0.043
Stream size : 284 MiB (78%)
Writing library : x264 core 142 r2479 dd79a61
Default : Yes
Forced : No

The 100 Season 1 In Hindi Audio #1
ID : 1
Format : AC-3
Format/Info : Audio Coding 3
Codec ID : A_AC3
Duration : 41 min 16 s
Bit rate mode : Constant
Bit rate : 224 kb/s
Channel(s) : 2 channels
Channel positions : Front: L R
Sampling rate : 48.0 kHz
Frame rate : 31.250 FPS (1536 SPF)
Bit depth : 16 bits
Compression mode : Lossy
Stream size : 66.1 MiB (18%)
Language : Hindi
Service kind : Complete Main
Default : No
Forced : No

The 100 Season 1 In English Audio #2
ID : 3
Format : AAC
Format/Info : Advanced Audio Codec
Format profile : HE-AAC / LC
Format settings : Explicit
Codec ID : A_AAC-2
Duration : 41 min 16 s
Bit rate : 51.9 kb/s
Channel(s) : 2 channels
Channel positions : Front: L R
Sampling rate : 48.0 kHz / 24.0 kHz
Frame rate : 23.438 FPS (1024 SPF)
Compression mode : Lossy
Delay relative to video : 31 ms
Stream size : 15.3 MiB (4%)
Language : English
Default : Yes
Forced : No

The 100 Season 1 English Subtitle:
ID : 4
Format : UTF-8
Codec ID : S_TEXT/UTF8
Codec ID/Info : UTF-8 Plain Text
Duration : 40 min 35 s
Bit rate : 68 b/s
Count of elements : 545
Stream size : 20.2 KiB (0%)
Default : Yes
Forced : No

Menu
00:00:00.000 : en:00:00:00.000
00:02:42.662 : en:00:02:42.662
00:10:09.108 : en:00:10:09.108
00:17:47.316 : en:00:17:47.316
00:24:33.180 : en:00:24:33.180
00:30:12.477 : en:00:30:12.477
00:35:34.090 : en:00:35:34.090
00:40:47.070 : en:00:40:47.070

Images, Screenshots Of Full Episodes

Some Images Of The 100 Season 1 Hindi Episode

The 100 Season 1 Hindi Dubbed Free Download Complete Episodes In 720p HD BluRay x264

The 100 Season 1 Hindi Dubbed Free Download Complete Episodes In 720p HD BluRay x264

The 100 Season 1 Hindi Dubbed Free Download Complete Episodes In 720p HD BluRay x264

The 100 Season 1 Hindi Dubbed Free Download Complete Episodes In 720p HD BluRay x264

Watch The Full HD 720p, 1080p Movie Trailers

Watch The 100 Series Official Trailer

Direct Download Links Of The 100 Season 1 Hindi Dubbed In 720p HD Given Below

Free Download Direct Links HD

Leave a Reply

Your email address will not be published. Required fields are marked *

Check Also

The Flash Season 4 – Complete

Free Direct Download The Flash Season 4 Episodes In 480p + 720p + 1080p Quality. Flash S04…