Watch How To Download Video

Brij Mohan Amar Rahe Full Movie Free Download In 720p HD (WEB-DL) Encoded In x264 With English Subtitle Netflix.

Brij Mohan Amar Rahe Full Netflix Movie Free Download In 720p HD With English Subtitle

Details Of Full Length Free Videos

Title: Brij Mohan Amar Rahe Netflix Download
Genres: Comedy | Crime | Drama
Country: India
Language: Hindi
Release Date: 3 August 2018 (USA)
Quality: 720p x264 | 720p WEB-DL x264
Subtitle: English
Format: MKV
Size: 570-MB | 877-MB

IMDb | Netflix

Storyline

Download Brij Mohan (36), a hosiery shop owner in a busy Delhi market, desperately wants to change his life. He is fed up of his ball-crusher wife and mounting debts. Brij Mohan Amar Rahe Free Download In 720p HD x264 In order to escape his wretched life, he changes his appearance and adopts a new identity as Amar Sethi, but ends up committing a botched up murder. He runs off with his young girlfriend, hopeful of making a new beginning. Instead, as luck would have it, he finds himself trapped in a web of his own Karma. Full Netflix 2018 Movie Download.

Brij Mohan Amar Rahe is an Indian Hindi-language comedy-crime-drama film directed by Nikhil Bhat. The film stars Arjun Mathur, Nidhi Singh, Sheetal Thakur, Manav Vij, Sunny Hinduja, Vijayant Kohli and Yogendra Tikku in key roles. The movie’s tagline is ‘A man convicted of his own murder’. Download With English Subtitles.

Details Of Brij Mohan Amar Rahe 2018 x264 720p HD Esub - 570 MB Movie

Details Of Brij Mohan Amar Rahe 2018 x264 720p HD Esub - 570 MB Movie

Brij Mohan Amar Rahe Full Netflix Movie Free Download In 720p HD With English Subtitle

Brij Mohan Amar Rahe Full Netflix Movie Free Download In 720p HD With English Subtitle

Brij Mohan Amar Rahe Full Netflix Movie Free Download In 720p HD With English Subtitle

Format : Matroska
Format version : Version 4 / Version 2
File size : 570 MiB
Duration : 1 h 40 min
Overall bit rate : 796 kb/s
Movie name : Brij Mohan Amar Rahe 2018 GOPISAHI

Video
Format : AVC
Format/Info : Advanced Video Codec
Codec ID : V_MPEG4/ISO/AVC
Duration : 1 h 40 min
Bit rate : 699 kb/s
Width : 1 280 pixels
Height : 574 pixels
Display aspect ratio : 2.25:1
Frame rate mode : Constant
Frame rate : 24.000 FPS
Color space : YUV
Chroma subsampling : 4:2:0
Bit depth : 8 bits
Scan type : Progressive
Bits/(Pixel*Frame) : 0.040
Stream size : 500 MiB (88%)
Title : GOPISAHI
Writing library : x264 core 155 r2901 7d0ff22

Audio
Format : AAC
Duration : 1 h 40 min
Bit rate : 96.0 kb/s
Channel(s) : 2 channels
Channel positions : Front: L R
Sampling rate : 48.0 kHz
Frame rate : 46.875 FPS (1024 SPF)
Compression mode : Lossy
Stream size : 68.4 MiB (12%)
Title : GOPISAHI
Language : Hindi

Text
Language : English

Details Of Brij Mohan Amar Rahe 2018 720p NF WEB-DL x264 AC3 - 877 MB Movie

Details Of Brij Mohan Amar Rahe 2018 720p NF WEB-DL x264 AC3 - 877 MB Movie

Brij Mohan Amar Rahe Full Netflix Movie Free Download In 720p HD With English Subtitle

Brij Mohan Amar Rahe Full Netflix Movie Free Download In 720p HD With English Subtitle

Brij Mohan Amar Rahe Full Netflix Movie Free Download In 720p HD With English Subtitle

Brij Mohan Amar Rahe Full Netflix Movie Free Download In 720p HD With English Subtitle

Brij Mohan Amar Rahe Full Netflix Movie Free Download In 720p HD With English Subtitle

Brij Mohan Amar Rahe Full Netflix Movie Free Download In 720p HD With English Subtitle

General

Format : Matroska
Format version : Version 4 / Version 2
File size : 877 MiB
Duration : 1 h 40 min
Overall bit rate : 1 225 kb/s
Movie name : MoviezAddiction.Website ~ Brij Mohan Amar Rahe (2018) 720p NF WEB-DL x264 AC3 ESub Hindi 875MB
Encoded date : UTC 2018-08-03 10:43:50
Writing application : mkvmerge v7.8.0 (‘River Man’) 32bit built on Mar 27 2015 16:18:02
Writing library : libebml v1.3.1 + libmatroska v1.4.2

Video
ID : 1
Format : AVC
Format/Info : Advanced Video Codec
Format profile : Main@L4
Format settings, CABAC : Yes
Format settings, ReFrames : 8 frames
Codec ID : V_MPEG4/ISO/AVC
Duration : 1 h 40 min
Bit rate : 1 000 kb/s
Width : 1 280 pixels
Height : 574 pixels
Display aspect ratio : 2.25:1
Frame rate mode : Constant
Frame rate : 24.000 FPS
Color space : YUV
Chroma subsampling : 4:2:0
Bit depth : 8 bits
Scan type : Progressive
Bits/(Pixel*Frame) : 0.057
Stream size : 715 MiB (82%)
Title : MoviezAddiction.Website
Writing library : x264 core 155 r2893 b00bcaf
Language : Hindi
Default : Yes
Forced : No
Color range : Limited
Color primaries : BT.709
Transfer characteristics : BT.709
Matrix coefficients : BT.709

Audio
ID : 2
Format : AC-3
Format/Info : Audio Coding 3
Format settings, Endianness : Big
Codec ID : A_AC3
Duration : 1 h 40 min
Bit rate mode : Constant
Bit rate : 224 kb/s
Channel(s) : 6 channels
Channel positions : Front: L C R, Side: L R, LFE
Sampling rate : 48.0 kHz
Frame rate : 31.250 FPS (1536 spf)
Bit depth : 16 bits
Compression mode : Lossy
Delay relative to video : -41 ms
Stream size : 160 MiB (18%)
Title : MoviezAddiction.Website
Language : Hindi
Service kind : Complete Main
Default : Yes
Forced : No

Watch The Full HD 720p, 1080p Movie Trailers

Watch Brij Mohan Amar Rahe Netflix Full Movie Trailer

Direct Download Links Of Brij Mohan Amar Rahe Full Movie 720p HD Given Below

Free Download Direct Links HD

Leave a Reply

Your email address will not be published. Required fields are marked *

Check Also

The Flash Season 4 – Complete

Free Direct Download The Flash Season 4 Episodes In 480p + 720p + 1080p Quality. Flash S04…